Stmívání / Twilight

13. prosince 2009 v 11:08 | eXpectro |  Filmy
Obrázek

General
Complete name : Twilight CZ
Format : AVI
Format/Info : Audio Video Interleave
File size : 2.03 GiB
Duration : 1h 56mn
Overall bit rate : 2 487 Kbps

Video
Format : MPEG-4 Visual
Format profile : Streaming Video@L1
Format settings, BVOP : Yes
Format settings, QPel : No
Format settings, GMC : No warppoints
Format settings, Matrix : Default (H.263)
Muxing mode : Packed bitstream
Codec ID : XVID
Codec ID/Hint : XviD
Duration : 1h 56mn
Bit rate : 2 035 Kbps
Width : 720 pixels
Height : 304 pixels
Display aspect ratio : 2.35
Frame rate : 25.000 fps
Original frame rate : 23.976 fps
Resolution : 24 bits
Colorimetry : 4:2:0
Scan type : Progressive
Bits/(Pixel*Frame) : 0.372
Stream size : 1.66 GiB (82%)
Writing library : XviD 1.1.2 (UTC 2006-11-01)

Audio
Format : AC-3
Format/Info : Audio Coding 3
Codec ID : 2000
Duration : 1h 56mn
Bit rate mode : Constant
Bit rate : 448 Kbps
Channel(s) : 6 channels
Channel positions : Front: L C R, Surround: L R, LFE
Sampling rate : 48.0 KHz
Resolution : 16 bits
Stream size : 373 MiB (18%)
Alignment : Aligned on interleaves
Interleave, duration : 40 ms (1.00 video frame)

THX PDM


http://rapidshare.com/files/246927359/thgiliwt.part01.rar
http://rapidshare.com/files/246928203/thgiliwt.part02.rar
http://rapidshare.com/files/246929108/thgiliwt.part03.rar
http://rapidshare.com/files/246930082/thgiliwt.part04.rar
http://rapidshare.com/files/246930982/thgiliwt.part05.rar
http://rapidshare.com/files/246931952/thgiliwt.part06.rar
http://rapidshare.com/files/246932893/thgiliwt.part07.rar
http://rapidshare.com/files/246933772/thgiliwt.part08.rar
http://rapidshare.com/files/246934749/thgiliwt.part09.rar
http://rapidshare.com/files/246935842/thgiliwt.part10.rar
http://rapidshare.com/files/246936919/thgiliwt.part11.rar
http://rapidshare.com/files/246937945/thgiliwt.part12.rar
http://rapidshare.com/files/246939024/thgiliwt.part13.rar
http://rapidshare.com/files/246940102/thgiliwt.part14.rar
http://rapidshare.com/files/246941039/thgiliwt.part15.rar
http://rapidshare.com/files/246942125/thgiliwt.part16.rar
http://rapidshare.com/files/246943148/thgiliwt.part17.rar
http://rapidshare.com/files/246944147/thgiliwt.part18.rar
http://rapidshare.com/files/246945066/thgiliwt.part19.rar
http://rapidshare.com/files/246946130/thgiliwt.part20.rar
http://rapidshare.com/files/246947081/thgiliwt.part21.rar
http://rapidshare.com/files/246947462/thgiliwt.part22.rar
 

Buď první, kdo ohodnotí tento článek.

Nový komentář

Přihlásit se
  Ještě nemáte vlastní web? Můžete si jej zdarma založit na Blog.cz.
 

Aktuální články

Reklama